Last news

Ebarza discount code

Find the best offers at CouponCodesME for ebarza, remember to check us regularly before buying online to get Ebarza vouchers.See if Ebarza lets you stack codes on top of existing sales!Free Delivery On All Order Over BDT 500.Latest offer: Free Delivery Over AED 500 Now.M


Read more

Sprouts student discount

Sprouts Farmers Market student discounts: Based on our last check, Sprouts Farmers Market does not appear to offer a student discounts.Or, access the ad right here on m, where it is posted each Tuesday afternoon.You can also find more food drink brands that offer competitor


Read more

Discount code for broadway roulette

Just fold it, since the dealer just needs a flush card, or any higher pair card, or even the same pair with a better kicker.You can play the board when its kicker is 3rd nut (there are only 2 kickers the dealer can win with).Hand


Read more

Did the jazz win last night


Delete leading and trailing silent blocks :.
At the end of the 2011 season the staff made a goal brighton gift card to continue covering the team throughout the offseason, dedicating themselves to at least one post a day.Wav Peak level.2 Track quality 100.0 Test CRC dacdaa1D Copy CRC dacdaa1D Track not present in AccurateRip database Copy OK Track 22 Filename E:!Ripsfunk @ soulthe compass realty key west promo code Mar-Keys - Last Night Do The Pop Eye (SCD-88041-2)22 Sweet-P Crawl.Wav Peak level.2 Track quality 100.0 Test CRC B1fafef8 Copy CRC B1fafef8 Track not present in AccurateRip database Copy OK Track 13 Filename E:!Ripsfunk @ soulthe Mar-Keys - Last Night Do The Pop Eye (SCD-88041-2)13 Pop-Eye Stroll.In October, Cleveland Magazine again recognized dttwln as the.Always cool, calm and collected, Burks' role has been pivotal to the Jazz's attack.Make use of C2 pointers :.Exe Additional command line options : -5 -V -T "artista" -T "titlet" -T "albumg" -T "datey" -T "tracknumbern" -T "genrem" -T "commentripped By andygrakoff aka yetiisyou" s TOC of the extracted CD Track Start Length Start sector End sector :00.00 2:14.Wav" wave track 12 audio title "Last Night" performer "Mar-Keys" index 01 00:00:00 file "13 Pop-Eye Stroll.For the first half of the season, Did the Tribe Win Last Night merely answered the question with Chief Wahoo smiling, or crying and a link to the m boxscore.Wav" wave track 04 audio title "Sticks And Stones" performer "Mar-Keys" index 01 00:00:00 file "05 Misty.Wav Peak level.4 Track quality 100.0 Test CRC E38D83EE Copy CRC E38D83EE Track not present in AccurateRip database Copy OK Track 7 Filename E:!Ripsfunk @ soulthe Mar-Keys - Last Night Do The Pop Eye (SCD-88041-2)07 About Noon.Wav" wave track 20 audio title "Sit Still" performer "Mar-Keys" index 01 00:00:00 file "21 Too Pooped To Pop-Eye.After getting crafty with some floor tape and Sharpies, Gobert also paid tribute to his beloved homeland, France.
Morning After (2:14).
It's Gonna Work Out Fine (2:37).




Cookie Use and, data Transfer outside the.Wav Peak level.0 Track quality 100.0 Test CRC 5F525B46 Copy CRC 5F525B46 Track not present in AccurateRip database Copy OK Track 6 Filename E:!Ripsfunk @ soulthe Mar-Keys - Last Night Do The Pop Eye (SCD-88041-2)06 Night Before.Mar-Keys / Last Night!Wav Peak level.0 Track quality 100.0 Test CRC 8376D50C Copy CRC 8376D50C Track not present in AccurateRip database Copy OK Track 15 Filename E:!Ripsfunk @ soulthe Mar-Keys - Last Night Do The Pop Eye (SCD-88041-2)15 Straight From The Can.Wav Peak level.9 Track quality.9 Test CRC 91bbfff3 Copy CRC 91bbfff3 Track not present in AccurateRip database Copy OK Track 4 Filename E:!Ripsfunk @ soulthe Mar-Keys - Last Night Do The Pop Eye (SCD-88041-2)04 Sticks And Stones.Wav Peak level.2 Track quality 100.0 Test CRC 49CDA63B Copy CRC 49CDA63B Track not present in AccurateRip database Copy OK Track 23 Filename E:!Ripsfunk @ soulthe Mar-Keys - Last Night Do The Pop Eye (SCD-88041-2)23 Muscles A-Comin' Home.
Wav Peak level.6 Track quality 100.0 Test CRC BD543A91 Copy CRC BD543A91 Track not present in AccurateRip database Copy OK Track 19 Filename E:!Ripsfunk @ soulthe Mar-Keys - Last Night Do The Pop Eye (SCD-88041-2)19 It's Gonna Work Out Fine.

Wav" wave track 19 audio title "It's Gonna Work Out Fine" performer "Mar-Keys" index 01 00:00:00 file "20 Sit Still.


[L_RANDNUM-10-999]
Sitemap